» » Habakuk - Family Front

Habakuk - Family Front mp3

Tracklist

1Rytm Serca (Good Riddim)
Featuring – Junior Stress
3:21
2Fraktal (Invisible Riddim)
Featuring – Mewa
3:23
3True Love (K.T.O. Riddim)
Featuring – Don Carlos
4:27
4Jesteś Drogą (Mr. X Riddim)
Featuring – Renata Przemyk
4:14
5Time Will Tell (K.T.O. Riddim)
Featuring – Mercedes
4:27
6Walcz Cały Czas (I'm Yours Riddim)
Featuring – Ras Luta
4:52
7Tutaj w PL (Vitamin Riddim)
Featuring – DaBass
4:18
8Jestem Twój (video)3:44
9Familijna Komitywa (Family Riddim)
Featuring – Bob One, DaBass, Pablopavo, Reggaenerator, Zabójczy
4:52
10Hold On Poland (Vitamin Riddim)
Featuring – Mikey Dread
4:20
11The City (City Riddim)
Featuring – Muniek
3:33
12Catch A Fire (K.T.O. Riddim)
Featuring – Ava Leigh
4:27
13Put The Smile On Your Face (K.T.O. Riddim)
Featuring – Mikey Dread
4:28
14Xamadi - Źle Wychowany (Invisible Riddim)
Featuring – Mamadou Diouf
3:49
15Siła Serca (Life Riddim)
Featuring – Mewa
3:40
16Solo (Invisible Riddim)
Featuring – FlyzZza
3:50

Credits

  • Bass, Programmed ByWojtek Cyndecki
  • DesignArtur Szumlas
  • Director Of Photography, AnimationMagdalena Deput (tracks: video), Mariusz Harmasz (tracks: video)
  • Guitar, Programmed ByKrzysztof Niedźwiecki, Wojciech Turbiarz
  • KeyboardsMarek Makles
  • Lyrics ByAnna Saraniecka (tracks: 4), Ava Leigh (tracks: 9), Bob One (tracks: 14), DaBass (tracks: 14, 15), Don Carlos (tracks: 5), Junior Stress (tracks: 2), Mamadou Diouf (tracks: 7), Mercedes (tracks: 12), Mewa (tracks: 6, 13), Mikey Dread (tracks: 1, 10), Pablopavo (tracks: 14), Ras Luta (tracks: 8), Reggaenerator (tracks: 14), Wojciech Turbiarz (tracks: 3, 14, video), Zabójczy (tracks: 14), Zygmunt Staszczyk (tracks: 11), FlyzZza (tracks: 3)
  • Music ByKrzysztof Niedźwiecki (tracks: 11), Marek Makles (tracks: 1, 5, 6, 9, 12, 14), Wojtek Cyndecki (tracks: 2, 8, 10, 15, video), Wojciech Turbiarz (tracks: 3, 7, 13)
  • Music By, ProducerJaromir Puszek (tracks: 4)
  • PercussionDominik Muszyński (tracks: 8), Jaromir Puszek, Piotr "Jackson" Wolski (tracks: 1, 4, 7, 9, 10, 13)
  • ProducerAdam Celiński (tracks: 1-15), Marek Makles (tracks: 1), Piotr "Jackson" Wolski (tracks: 7), Wojtek Cyndecki (tracks: 1-6, 8, 9, 12,13-15), Wojciech Turbiarz (tracks: 3, 6, 7, 8, 12, 13)
  • Programmed ByPiotr "Jackson" Wolski (tracks: 4)
  • Realization, Mixed By, Mastered ByAdam Celiński
  • SaxophoneŁukasz Kluczniak (tracks: 1, 3, 5, 8-10, 12-15)
  • ScratchesDJ Haem (tracks: 2, 3, 13)
  • TrumpetDaniel Pomorski (tracks: 1, 3-6, 8-10, 12-15)
  • Video EditorMarcin Gorgolewski (tracks: video)
  • VoiceValerie "Vybz" Skeete (tracks: 9), Wojciech Turbiarz (tracks: 3, 14)

Notes

Jubileuszowa płyta Habakuka, który świętował 18-lecie istnienia.

Nagrań dokonano w studiu Radioaktywni w latach 2003-2008.

Dodatkowe nagrania:
Track 2 - Jacek "Dżeksong" Onaszkiewicz
Track 3 - FlyzZza Studio
Track 6 - Chupacabra Studio
Track 12 - Jarek Toifl, Studio H.H. Poland
Track 13 - Chupacabra Studio

Video:
File size : 109 MiB
Duration : 3 min 44 s
Overall bit rate : 4 071 kb/s
Format : MPEG-4
Bit rate : 2 525 kb/s
Width : 720 pixels
Height : 576 pixels
Display aspect ratio : 4:3
Frame rate : 25.000 FPS
Standard : PAL
Stream size : 67.7 MiB (62%)
Format : PCM
Bit rate : 1 536 kb/s
Channel(s) : 2 channels
Sampling rate : 48.0 kHz
Bit depth : 16 bits
Stream size : 41.2 MiB (38%)

Barcodes

  • Barcode (Text): 5 904259 352406
  • Matrix / Runout: 9960 L372/FAMILY FRONT
  • Mould SID Code: IFPI ZY03

Companies

  • Recorded At – Radioaktywni Studio

Info

Family Front. Released 2008. Family Front Tracklist. Family Front Q&A. Посмотреть сведения об участниках альбома, рецензии, композиции и приобрести альбом 2008 CD от Family Front на free to Habakuk Family Front Put The Smile On Your Face Feat. Mikey Dread, Rytm Serca Feat. Junior Stress and more. 15 tracks 62:01. There are three artists with this name: 1 Habakuk, one of the most famous polish reggae groups, was founded in the city of Częstochowa in 1990. The band's lineup changed a bit through read more. The band's lineup changed a bit through the years. Habakuk is one of the most popular reggae group in Poland. Band exists since 1990 and described their. Kawał świetnego reggae. Sprawdźcie to, tym bardziej że w projekcie tym udziela się perkusista Habakuk Borys Family Front wiecznie Żywe Drzewo One Love. Borys Sławenta is feeling delighted. Album starts at BPM, ends at BPM 0, with tempos within the -BPM range. Try refreshing the page if dots are missing. Tracklist Family Front. Put the Smile on Your Face feat. Mikey Dread. Please vote. Add album to Cart. Hub-A-Dub2006. Zycia Rytm2005. Rozczochrany Leb2004. Sztuka Ulotna2011. 2008 - 15 songs. Rytm serca feat. More albums from Habakuk. Farbigkeit steckt an. Sztuka Ulotna. A Ty Siej. Family Front by Habakuk appeared on 1 chart for 1 week, peaked at 50 in Poland. View detailed chart stats. Singles & Albums. Chart Stats. Habakuk - Family Front ReggaeReggae. Release type: Album. Release source: CD. Year: 2008. Duration: 62:02. Size, Mb: . Bitrate: 320. Price for album: . Discount: 20

Habakuk - Family Front mp3

Performer: Habakuk

Title: Family Front

Country: Poland

Release date: 2008

Label: Lou & Rocked Boys

Catalog: LOU 040 CD

Genre: Reggae

Size MP3: 2559 mb

Rating: 4.2 / 5

Votes: 235

Record source: CD, Album, Enhanced

MP3 Related to Habakuk - Family Front